<?xml version="1.0" standalone="no"?>
<!DOCTYPE svg PUBLIC "-//W3C//DTD SVG 1.1//EN" "http://www.w3.org/Graphics/SVG/1.1/DTD/svg11.dtd">
<svg xmlns="http://www.w3.org/2000/svg">
<metadata>Generated by Fontastic.me</metadata>
<defs>
<font id="fontello" horiz-adv-x="512">
<font-face font-family="fontello" units-per-em="512" ascent="480" descent="-32"/>
<missing-glyph horiz-adv-x="512" />

<glyph glyph-name="10-car" unicode="&#97;" d="M511 369l-60 0-31 88-9 3c-2 1-62 21-153 21-91 0-154-20-157-21l-9-3-31-88-60 0 0-39 46 0-27-43c-13-19-19-41-19-64l0-132c0-33 27-60 60-60 33 0 59 27 59 60l0 9 272 0 0-9c0-33 26-60 59-60 33 0 60 27 60 60l0 132c0 23-6 45-19 64l-26 43 45 0z m-388 56c20 5 70 17 135 17 64 0 112-12 131-17l26-73-318 0z m-42-334c0-11-10-20-20-20-11 0-20 9-20 20l0 9 40 0z m230 49l-110 0 0 60 110 0z m140-69c-11 0-20 9-20 20l0 9 40 0 0-9c0-11-9-20-20-20z m20 69l-120 0 0 100-190 0 0-100-120 0 0 83c0 15 4 30 12 43l29 46 348 0 29-46c8-13 12-28 12-43z m-341 80c0-11-9-20-19-20-4 0-17 0-20 0-11 0-21 9-21 20 0 11 10 20 21 20l20 0c10 0 19-9 19-20z m311 0c0-11-9-20-20-20-3 0-16 0-20 0-10 0-20 9-20 20 0 11 10 20 20 20l20 0c11 0 20-9 20-20z m0 0z"/>
<glyph glyph-name="10-map" unicode="&#98;" d="M391 50c-36-11-84-16-135-16-51 0-99 5-135 16-38 10-46 22-46 24 0 2 6 11 34 20 25 9 60 15 99 18 20-28 35-47 36-48 2-4 7-6 12-6 5 0 9 2 12 6 1 1 16 20 36 48 39-3 74-9 99-18 28-9 34-18 34-20 0-2-8-14-46-24z m-261 302c0 69 56 126 126 126 70 0 126-57 126-126 0-37-23-95-68-167-22-36-45-67-58-85-13 18-36 49-58 85-45 72-68 130-68 167z m283-227c-23 8-54 14-88 18 5 7 10 16 16 24 48 79 73 141 73 185 0 87-71 158-158 158-87 0-158-71-158-158 0-44 24-106 73-185 6-8 11-17 16-24-34-4-65-10-88-18-37-13-56-30-56-51 0-23 24-42 70-55 38-11 89-17 143-17 54 0 105 6 143 17 46 13 70 32 70 55 0 21-19 38-56 51z m-157 269c23 0 42-19 42-42 0-23-19-42-42-42-23 0-42 19-42 42 0 23 19 42 42 42z m0-116c41 0 74 33 74 74 0 41-33 74-74 74-41 0-74-33-74-74 0-41 33-74 74-74z"/>
<glyph glyph-name="10-medic" unicode="&#99;" d="M276 218l70 0 0-40-70 0 0-70-39 0 0 70-70 0 0 40 70 0 0 70 39 0z m132-158c0-11-8-20-19-20l-266 0c-11 0-19 9-19 20l0 352c0 11 8 20 19 20l33 0 0-79 201 0 0 79 32 0c11 0 19-9 19-20z m-171 372l0 20c0 11 8 20 19 20 12 0 20-9 20-20l0-20 41 0 0-39-120 0 0 39z m152 40l-76 0c-8 23-31 40-57 40-26 0-48-17-56-40l-77 0c-32 0-59-27-59-60l0-352c0-33 27-60 60-60l265 1c33 0 59 26 59 59l0 352c0 33-27 60-59 60z"/>
<glyph glyph-name="10-property" unicode="&#100;" d="M469 244l-11 0 0 91 38 0c4 0 8 2 11 5 3 4 4 9 3 13l-23 95c-1 6-7 11-14 11l-60 0c-7 0-13-5-15-11l-23-95c-1-4 0-9 3-13 3-3 7-5 12-5l38 0 0-36c-7 4-15 7-23 7l-298 0c-24 0-44-20-44-45l0-17-21 0c-22 0-41-19-41-42l0-134c0-23 19-41 41-41l427 0c23 0 42 18 42 41l0 134c0 23-19 42-42 42z m-427-187c-6 0-11 5-11 11l0 134c0 7 5 12 11 12l54 0c6 0 11-5 11-12l0-134c0-6-5-11-11-11z m65 219l298 0c8 0 14-7 14-15l0-17-3 0c-22 0-41-19-41-42l0-52-238 0 0 52c0 23-18 42-41 42l-3 0 0 17c0 8 6 15 14 15z m30-208l0 52 238 0 0-52c0-4 1-8 2-11l-242 0c1 3 2 7 2 11z m268 0l0 134c0 7 5 12 11 12l53 0c7 0 12-5 12-12l0-134c0-6-5-11-12-11l-53 0c-6 0-11 5-11 11z m56 361l15-64-67 0 15 64z m-426-74l253 0c8 0 15 6 15 14l0 101c0 9-7 15-15 15l-253 0c-8 0-15-6-15-15l0-101c0-8 7-14 15-14z m15 100l223 0 0-71-223 0z m0 0z"/>
<glyph glyph-name="10-favorites" unicode="&#101;" d="M388 11c-6 0-13 3-19 5l-110 58c-2 1-4 1-6 0l-109-58c-15-7-31-6-45 3-12 10-18 26-16 40l22 123c0 3-1 4-2 6l-89 87c-12 10-15 27-11 42 5 15 18 26 34 27l123 19c2 0 3 1 4 3l55 112c7 13 22 23 38 23 14 0 29-10 36-23l55-112c1-2 2-3 4-3l123-19c16-1 29-12 34-27 5-15 1-32-11-42l-89-87c-1-2-2-3-1-6l21-122c2-12-1-25-9-34-8-9-20-15-32-15z m-131 100c5 0 12-3 18-6l110-57c3-1 5-1 6 0 2 1 4 3 4 6l-22 123c-2 12 2 26 11 36l90 87c4 3 1 9-3 10l-123 17c-14 3-25 12-31 23l-56 112c-2 4-8 4-10 0l-55-112c-7-11-18-20-32-23l-123-17c-4-1-7-7-2-10l89-87c9-10 13-24 11-36l-20-123c-2-5 3-8 8-6l110 57c6 3 13 6 20 6z m0 0z"/>
<glyph glyph-name="01-plus" unicode="&#102;" d="M256 0c-25 0-44 19-44 44l0 427c0 22 19 41 44 41 22 0 41-19 41-41l0-427c0-25-19-44-41-44z m0 0z m-256 256c0 25 19 44 41 44l427 0c25 0 44-19 44-44 0-22-19-41-44-41l-427 0c-22 0-41 19-41 41z m0 0z"/>
<glyph glyph-name="11-bin" unicode="&#103;" d="M217 314c-11 0-19-8-19-20l0-155c0-11 8-20 19-20 11 0 20 9 20 20l0 155c0 12-9 20-20 20z m0 0z m78 0c-11 0-20-8-20-20l0-155c0-11 9-20 20-20 11 0 19 9 19 20l0 155c0 12-8 20-19 20z m0 0z m19 196l-116 0c-22 0-40-18-40-40l0-38-117 0c-11 0-19-9-19-20 0-11 8-19 19-19l40 0 0-333c0-32 25-58 58-58l234 0c33 0 58 26 58 58l0 333 40 0c10 0 19 8 19 19 0 11-9 20-19 20l-117 0 0 38c0 22-18 40-40 40z m78-450c0-10-8-19-19-19l-234 0c-11 0-20 9-20 19l0 333 273 0z m-194 410l116 0 0-38-116 0z m0-38l0 38z"/>
<glyph glyph-name="12-lock" unicode="&#104;" d="M99 37l314 0 0 243-314 0z m320-36l-326 0c-17 0-30 13-30 30l0 255c0 16 13 30 30 30l326 0c17 0 30-14 30-30l0-255c0-17-13-30-30-30z m-18 302l-36 0 0 62c0 60-49 110-109 110-61 0-110-50-110-110l0-62-36 0 0 62c0 81 66 146 146 146 80 0 145-65 145-146z m-148-201c-10 0-18 8-18 17l0 42c0 10 8 18 18 18 9 0 18-8 18-18l0-42c0-9-9-17-18-17z"/>
<glyph glyph-name="13-search" unicode="&#105;" d="M206 100c46 0 90 16 126 43l137-135c10-11 26-10 35 0 11 10 11 26 0 35l-135 137c69 90 53 219-37 289-90 69-219 53-289-37-69-89-53-219 37-289 36-28 80-43 126-43z m-109 316c60 60 158 60 218 0 61-61 61-159 0-219-60-61-158-61-218 0-61 60-61 157-1 218 0 0 0 0 1 1z m0 0z"/>
<glyph glyph-name="17-add" unicode="&#106;" d="M0 512l0-384 107 0 0-128 49 0 192 128 164 0 0 384z m469-341l-134 0-186-124 0 124-106 0 0 298 426 0z m0 0z m-234 43l42 0 0 85 86 0 0 42-86 0 0 86-42 0 0-86-86 0 0-42 86 0z m0 0z"/>
<glyph glyph-name="17-delete" unicode="&#107;" d="M384 469c47 0 85-38 85-85l0-256c0-47-38-85-85-85l-256 0c-47 0-85 38-85 85l0 256c0 47 38 85 85 85z m0 43l-256 0c-71 0-128-57-128-128l0-256c0-71 57-128 128-128l256 0c71 0 128 57 128 128l0 256c0 71-57 128-128 128z m0 0z m-98-256l60 60c9 9 9 22 0 30-8 9-21 9-30 0l-60-60-60 60c-9 9-22 9-30 0-9-8-9-21 0-30l60-60-60-60c-9-9-9-22 0-30 4-5 9-7 15-7 5 0 10 2 15 7l60 60 60-60c5-5 10-7 15-7 6 0 11 2 15 7 9 8 9 21 0 30z m0 0z"/>
<glyph glyph-name="17-edit" unicode="&#108;" d="M384 469c47 0 85-38 85-85l0-256c0-47-38-85-85-85l-256 0c-47 0-85 38-85 85l0 256c0 47 38 85 85 85z m0 43l-256 0c-71 0-128-57-128-128l0-256c0-71 57-128 128-128l256 0c71 0 128 57 128 128l0 256c0 71-57 128-128 128z m0 0z m-171-384l-64 0c-11 0-21 10-21 21l0 64c0 6 2 11 6 15l150 150c8 8 22 8 30 0l64-64c8-9 8-22 0-31l-149-149c-5-4-10-6-16-6z m-42 42l33 0 129 129-34 34-128-129z m0 0z"/>
<glyph glyph-name="17-ok" unicode="&#109;" d="M384 469c47 0 85-38 85-85l0-256c0-47-38-85-85-85l-256 0c-47 0-85 38-85 85l0 256c0 47 38 85 85 85z m0 43l-256 0c-71 0-128-57-128-128l0-256c0-71 57-128 128-128l256 0c71 0 128 57 128 128l0 256c0 71-57 128-128 128z m0 0z m-172-363c-5 0-10 2-15 6l-61 60c-8 9-8 22 0 30 8 9 22 9 30 1l46-45 138 134c8 8 22 8 30 0 8-8 8-22 0-30l-153-150c-4-4-9-6-15-6z m0 0z"/>
<glyph glyph-name="18-delete" unicode="&#110;" d="M384 469c47 0 85-38 85-85l0-256c0-47-38-85-85-85l-256 0c-47 0-85 38-85 85l0 256c0 47 38 85 85 85z m0 43l-256 0c-71 0-128-57-128-128l0-256c0-71 57-128 128-128l256 0c71 0 128 57 128 128l0 256c0 71-57 128-128 128z m0 0z m-98-256l61 60c8 9 8 22 0 31-9 8-22 8-31 0l-60-61-60 61c-9 8-22 8-31 0-8-9-8-22 0-31l61-60-61-60c-8-9-8-22 0-31 5-4 10-6 16-6 5 0 10 2 15 6l60 61 60-61c4-4 10-6 15-6 6 0 11 2 16 6 8 9 8 22 0 31z m0 0z"/>
<glyph glyph-name="18-save" unicode="&#111;" d="M512 26l0 333c0 6-3 13-8 17l-128 128c-4 5-11 8-18 8l-333 0c-14 0-25-11-25-25l0-461c0-14 11-26 25-26l461 0c14 0 26 12 26 26z m-179 25l-154 0 0 128 154 0z m128 0l-77 0 0 154c0 14-12 26-26 26l-205 0c-14 0-25-12-25-26l0-154-77 0 0 410 297 0 113-113z m0 0z m-205 308l-103 0c-14 0-25-12-25-26 0-14 11-26 25-26l103 0c14 0 25 12 25 26 0 14-11 26-25 26z m0 0z"/>
<glyph glyph-name="25-close" unicode="&#112;" d="M340 254c-1 1-1 3 0 4l162 162c13 14 13 36 0 50l-32 32c-7 7-17 10-25 10-10 0-19-3-26-10l-161-161c-1-1-2-2-2-2 0 0-1 1-2 2l-162 161c-6 7-15 10-25 10-9 0-18-3-25-10l-32-32c-13-14-13-36 0-50l161-162c2-1 2-3 0-4l-161-162c-13-14-13-36 0-50l32-32c7-7 16-10 25-10 10 0 19 3 25 10l162 161c1 1 2 2 2 2 0 0 1-1 2-2l161-161c7-7 16-10 26-10 8 0 18 3 25 10l32 32c13 14 13 36 0 50z"/>
<glyph glyph-name="28-arrow-button" unicode="&#113;" d="M297 281l-59 59 36 37 121-121-121-121-36 36 58 59-296 0 0 51z m0 0z m-41-230c113 0 205 92 205 205 0 113-92 205-205 205-86 0-159-53-190-128l-54 0c32 104 130 179 244 179 141 0 256-115 256-256 0-141-115-256-256-256-114 0-212 75-244 179l54 0c31-75 104-128 190-128z m0 0z"/>
<glyph glyph-name="29-warning" unicode="&#114;" d="M256 162c-14 0-26-12-26-27 0-14 12-26 26-26 14 0 26 12 25 26 1 15-11 27-25 27z m0 0z m242-93c16 28 16 62 0 90l-164 284c-16 28-45 45-78 45-33 0-62-17-78-45l-164-284c-16-28-16-62 0-91 17-27 46-44 79-44l326 0c33 0 62 17 79 45z m-36 21c-9-16-25-26-43-26l-327 0c-18 0-34 10-42 25-10 16-10 34 0 50l163 283c9 16 25 25 43 25 18 0 34-10 43-25l163-284c10-15 9-33 0-48z m0 0z m-213 255c-12-3-19-14-19-29 0-8 1-16 1-25 2-31 3-62 5-93 1-11 10-18 20-18 10 0 19 8 20 18 0 7 0 13 0 19 2 21 3 40 3 61 1 13 2 26 3 39 0 5-1 9-3 14-4 11-17 17-30 14z m0 0z"/>
<glyph glyph-name="30-copy" unicode="&#115;" d="M37 366c0 10 8 18 18 18l311 0c10 0 18-8 18-18l0-311c0-10-8-18-18-18l-311 0c-10 0-18 8-18 18z m18-366l311 0c30 0 55 25 55 55l0 311c0 30-25 55-55 55l-311 0c-30 0-55-25-55-55l0-311c0-30 25-55 55-55z m402 512l-329 0c-30 0-55-25-55-55 0-10 8-18 18-18 11 0 19 8 19 18 0 10 8 18 18 18l329 0c10 0 18-8 18-18l0-329c0-10-8-18-18-18-10 0-18-8-18-19 0-10 8-18 18-18 30 0 55 25 55 55l0 329c0 30-25 55-55 55z"/>
<glyph glyph-name="30-link" unicode="&#116;" d="M213 122l-61-61c-24-24-66-24-90 0-25 26-25 66 0 92l121 119c24 26 65 26 90 0 8-7 21-7 30 0 8 9 8 23 0 31-42 42-110 42-151 0l-121-121c-41-41-41-109 0-150 43-42 109-42 152 0l59 60c9 9 9 21 0 30-7 8-21 8-29 0z m75 256l72 73c25 25 66 25 91 0 24-25 24-66 0-91l-132-132c-26-26-66-26-92 0-8 8-21 8-29 0-9-9-9-22 0-31 41-41 109-41 150 0l133 133c41 42 41 109 0 151-42 42-109 42-151 0l-72-73c-8-8-8-21 0-30 9-8 21-8 30 0z"/>
<glyph glyph-name="30-menu" unicode="&#117;" d="M490 235l-468 0c-12 0-21 9-21 21 0 12 9 21 21 21l468 0c12 0 21-9 21-21 0-12-9-21-21-21z m0 0z m0 163l-468 0c-12 0-21 9-21 21 0 12 9 21 21 21l468 0c12 0 21-9 21-21 0-12-9-21-21-21z m0 0z m0-326l-468 0c-12 0-21 9-21 21 0 12 9 21 21 21l468 0c12 0 21-9 21-21 0-12-9-21-21-21z m0 0z"/>
<glyph glyph-name="30-oplata-1" unicode="&#118;" d="M511 227l-96 243c-2 5-8 7-13 5l-393-156c-1-1-3-2-4-3-3-2-5-5-5-9l0-261c0-6 4-10 10-10l422 0c6 0 10 4 10 10l0 143 64 25c5 2 7 8 5 13z m-89-171l-402 0 0 241 402 0z m-254 261l168 67c15-15 36-24 58-24l16-43z m274-107l0 97c0 6-4 10-10 10l0 0-21 54c-1 0-1 1-1 1-1 5-6 8-11 8-20-2-40 7-52 22-3 4-9 5-13 3-1 0-1 0-2-1l-205-81c-3-1-5-3-6-6l-62 0 341 136 89-224z m0 0z m-395-86c20-6 35-21 41-41 1-4 5-7 10-7 0 0 1 0 1 0 1 0 1 0 2 0l241 0c0 0 1 0 1 0 5-1 10 2 11 7 6 20 21 35 41 41 5 1 7 6 7 11 0 1 0 1 0 1l0 81c0 0 0 1 0 1 0 5-2 10-7 11-20 6-35 21-41 41-1 5-6 8-11 7 0 0-1 0-1 0l-241 0c-1 0-2 0-2 0-5 1-10-2-11-7-6-20-21-35-41-41-4-1-7-6-7-11 0 0 0-1 0-1l0-81c0 0 0 0 0-1 0-5 3-10 7-11z m13 89c20 8 36 24 45 44l233 0c8-20 24-36 44-44l0-72c-20-9-36-24-44-45l-233 0c-9 21-25 36-45 45z m0 0z m161-97c33 0 60 27 60 61 0 33-27 60-60 60-33 0-60-27-60-60 0-34 27-61 60-61z m0 101c22 0 40-18 40-40 0-23-18-41-40-41-22 0-40 18-40 41 0 22 18 40 40 40z m0 0z m-110-55c8 0 15 6 15 15 0 8-7 15-15 15-9 0-15-7-15-15 0-9 6-15 15-15z m0 20c2 0 5-2 5-5 0-3-3-5-5-5-3 0-5 2-5 5 0 3 2 5 5 5z m0 0z m221-20c8 0 15 6 15 15 0 8-7 15-15 15-9 0-15-7-15-15 0-9 6-15 15-15z m0 20c2 0 5-2 5-5 0-3-3-5-5-5-3 0-5 2-5 5 0 3 2 5 5 5z m0 0z"/>
<glyph glyph-name="30-oplata-2" unicode="&#119;" d="M459 427l-406 0c-29 0-53-24-53-54l0-234c0-30 24-54 53-54l406 0c29 0 53 24 53 54l0 234c0 30-24 54-53 54z m32-288c0-18-15-32-32-32l-406 0c-17 0-32 14-32 32l0 234c0 18 15 32 32 32l406 0c17 0 32-14 32-32z m0 0z m10 224l-490 0c-6 0-11-5-11-11l0-64c0-6 5-11 11-11l490 0c6 0 11 5 11 11l0 64c0 6-5 11-11 11z m-10-64l-470 0 0 42 470 0z m0 0z m-288-86l-128 0c-6 0-11-4-11-10 0-6 5-11 11-11l128 0c6 0 10 5 10 11 0 6-4 10-10 10z m0 0z m0-42l-128 0c-6 0-11-5-11-11 0-6 5-11 11-11l128 0c6 0 10 5 10 11 0 6-4 11-10 11z m0 0z m213 64l-21 0c-18 0-32-15-32-32l0-22c0-17 14-32 32-32l21 0c18 0 32 15 32 32l0 22c0 17-14 32-32 32z m11-54c0-6-5-10-11-10l-21 0c-6 0-11 4-11 10l0 22c0 6 5 10 11 10l21 0c6 0 11-4 11-10z m0 0z"/>
<glyph glyph-name="30-oplata-3" unicode="&#120;" d="M396 483l-42 0 0 19c0 6-4 10-10 10l-43 0c-6 0-10-4-10-10 0-6 4-10 10-10l33 0 0-57-156 0 0 57 33 0c6 0 10 4 10 10 0 6-4 10-10 10l-43 0c-6 0-10-4-10-10l0-19-42 0c-17 0-30-13-30-30l0-423c0-17 13-30 30-30l280 0c17 0 30 13 30 30l0 423c0 17-13 30-30 30z m-245-463l12 20 186 0 12-20z m255 10c0-6-4-10-10-10l-12 0-21 35c-2 3-6 5-9 5l-196 0c-3 0-7-2-9-5l-21-35-12 0c-6 0-10 4-10 10l0 423c0 6 4 10 10 10l42 0 0-28-12 0c-6 0-10-4-10-10 0-6 4-10 10-10l220 0c6 0 10 4 10 10 0 6-4 10-10 10l-12 0 0 28 42 0c6 0 10-4 10-10z m0 0z m-216 212l-44 0c-6 0-10-4-10-10l0-44c0-6 4-10 10-10l44 0c5 0 10 4 10 10l0 44c0 6-5 10-10 10z m-10-44l-24 0 0 24 24 0z m0 0z m186 44l-44 0c-5 0-10-4-10-10l0-44c0-6 5-10 10-10l44 0c6 0 10 4 10 10l0 44c0 6-4 10-10 10z m-10-44l-24 0 0 24 24 0z m0 0z m-78 44l-44 0c-6 0-10-4-10-10l0-44c0-6 4-10 10-10l44 0c6 0 10 4 10 10l0 44c0 6-4 10-10 10z m-10-44l-24 0 0 24 24 0z m0 0z m-78-50l-44 0c-6 0-10-4-10-10l0-44c0-6 4-10 10-10l44 0c5 0 10 4 10 10l0 44c0 6-5 10-10 10z m-10-44l-24 0 0 24 24 0z m0 0z m186 44l-44 0c-5 0-10-4-10-10l0-44c0-6 5-10 10-10l44 0c6 0 10 4 10 10l0 44c0 6-4 10-10 10z m-10-44l-24 0 0 24 24 0z m0 0z m-78 44l-44 0c-6 0-10-4-10-10l0-44c0-6 4-10 10-10l44 0c6 0 10 4 10 10l0 44c0 6-4 10-10 10z m-10-44l-24 0 0 24 24 0z m0 0z m98 286l-220 0c-6 0-10-4-10-10l0-103c0-5 4-10 10-10l220 0c6 0 10 5 10 10l0 103c0 6-4 10-10 10z m-10-103l-200 0 0 83 200 0z m0 0z m-90 215c0-6-5-10-10-10-5 0-10 4-10 10 0 6 5 10 10 10 5 0 10-4 10-10z m0 0z"/>
<glyph glyph-name="31-close" unicode="&#121;" d="M256 0c-141 0-256 115-256 256 0 141 115 256 256 256 141 0 256-115 256-256 0-141-115-256-256-256z m0 475c-121 0-219-98-219-219 0-121 98-219 219-219 121 0 219 98 219 219 0 121-98 219-219 219z m0 0z m91-329c-5 0-9 2-13 6l-182 183c-7 7-7 19 0 25 6 7 18 7 25 0l183-182c7-8 7-19 0-26-4-4-8-6-13-6z m0 0z m-183 0c-4 0-9 2-12 6-7 7-7 18 0 26l182 182c8 7 19 7 26 0 7-6 7-18 0-25l-183-183c-3-4-7-6-13-6z m0 0z"/>
<glyph glyph-name="31-doc" unicode="&#122;" d="M433 406l-96 91c-10 10-24 15-38 15l-183 0c-30 0-55-25-55-55l0-402c0-30 25-55 55-55l280 0c30 0 55 25 55 55l0 311c0 15-7 30-18 40z m-29-14l-74 0c-3 0-5 2-5 5l0 70z m-8-362l-280 0c-14 0-25 12-25 25l0 402c0 14 11 25 25 25l179 0 0-85c0-19 15-35 35-35l91 0 0-307c0-13-12-25-25-25z m0 0z m-33 282l-220 0c-8 0-15-7-15-15 0-8 7-15 15-15l220 0c8 0 15 7 15 15 0 8-7 15-15 15z m0 0z m0-80l-220 0c-8 0-15-6-15-15 0-8 7-15 15-15l220 0c8 0 15 7 15 15 0 9-7 15-15 15z m0 0z m-147-80l-73 0c-8 0-15-6-15-15 0-8 7-15 15-15l73 0c8 0 15 7 15 15 0 9-7 15-15 15z m0 0z"/>
<glyph glyph-name="31-plus" unicode="&#65;" d="M0 512l0-384 107 0 0-128 49 0 192 128 164 0 0 384z m470-341l-135 0-186-125 0 125-106 0 0 298 427 0z m0 0z m-235 42l43 0 0 85 85 0 0 43-85 0 0 86-43 0 0-86-86 0 0-43 86 0z m0 0z"/>
<glyph glyph-name="32-attach" unicode="&#66;" d="M462 448c-62 64-166 64-229 0l-197-196c-46-45-46-118 0-164 23-23 52-33 82-33 30 0 59 10 82 33l180 181c13 13 21 30 21 48 0 20-8 36-21 49-27 28-71 28-99 0l-117-116c-9-10-9-25 0-34 10-9 24-9 33 0l118 118c9 9 23 9 33 0 3-4 6-10 6-17 0-5-3-12-6-16l-181-180c-27-27-71-27-99 0-27 27-27 71 0 99l198 196c45 45 118 45 163 0 22-22 34-51 34-82 0-31-12-60-34-82l-196-197c-9-9-9-24 0-33 4-4 11-6 16-6 6 0 12 2 17 6l196 198c31 30 48 71 48 114 0 43-17 84-48 114z"/>
<glyph glyph-name="33-warning-red" unicode="&#67;" d="M256 161c-14 0-26-12-26-26 0-14 12-26 26-26 14 0 26 12 26 25 0 15-12 27-26 27z m0 0z m244-93c16 28 16 62 0 91l-165 285c-16 29-46 46-79 46-33 0-62-17-79-46l-165-285c-16-29-16-63 1-92 16-28 45-45 78-45l329 0c33 0 63 17 80 46z m-36 21c-9-16-26-26-44-26l-329 0c-18 0-34 10-43 25-9 16-9 34 0 50l165 286c9 16 25 25 43 25 18 0 34-10 43-25l165-286c9-15 9-34 0-49z m0 0z m-215 257c-12-4-20-15-20-29 1-8 1-17 2-25 2-32 4-63 5-94 1-11 9-19 20-19 11 0 19 8 20 19 0 7 0 13 0 19 1 21 3 41 4 61 1 14 2 27 2 40 0 5 0 9-2 13-5 12-18 18-31 15z m0 0z"/>
<glyph glyph-name="35-faq" unicode="&#68;" d="M512 256c0-141-115-256-256-256-141 0-256 115-256 256 0 141 115 256 256 256 141 0 256-115 256-256z m-273-78c0 2 0 3 0 5 0 2 0 4 0 5 0 12 2 24 5 33 4 9 9 18 14 26 6 8 12 15 18 22 6 7 12 14 18 21 5 7 10 14 14 22 4 8 5 17 5 27 0 14-4 25-11 34-8 8-21 13-40 13-10 0-21-3-32-6-11-4-21-8-29-13l-12 27c11 7 23 13 36 17 12 4 27 6 46 6 13 0 24-2 35-6 10-4 18-9 24-16 7-6 12-13 16-22 3-9 4-19 4-29 0-14-2-25-6-35-4-10-9-19-15-27-6-9-12-16-19-23-7-7-14-15-20-23-6-7-11-16-15-25-4-10-6-20-6-33z m-9-58c0 8 3 14 7 19 5 4 11 7 19 7 8 0 14-3 19-7 5-5 7-11 7-19 0-8-2-14-7-19-5-5-11-7-19-7-8 0-14 2-19 7-4 5-7 11-7 19z"/>
<glyph glyph-name="accept" unicode="&#69;" d="M464 438c-4 4-9 6-13 6l-3 0c-4 0-9-2-13-6l-236-236-122 122c-8 8-20 8-29 0l-42-42c-4-4-6-9-6-14l0-1c0-5 2-10 6-14l178-180c8-7 21-7 29 0l294 294c7 8 7 21 0 29z"/>
<glyph glyph-name="add-agent" unicode="&#70;" d="M128 384c0 47 38 85 85 85 47 0 85-38 85-85l0-43c0-46-38-85-85-85-47 0-85 39-85 85z m128-341l-192 0c-12 0-21 9-21 21l0 21c0 67 39 126 95 153 21-15 47-24 75-24 71 0 128 57 128 127l0 43c0 70-57 128-128 128-71 0-128-58-128-128l0-43c0-26 9-51 22-71-64-37-107-106-107-185l0-21c0-35 28-64 64-64l192 0c12 0 21 10 21 22 0 11-9 21-21 21z m234 106l-84 0 0 86c0 12-10 21-22 21-12 0-21-9-21-21l0-86-86 0c-12 0-21-9-21-21 0-12 9-22 21-22l86 0 0-84c0-12 9-22 21-22 12 0 22 10 22 22l0 84 84 0c12 0 22 10 22 22 0 12-10 21-22 21z"/>
<glyph glyph-name="add-agent-dark" unicode="&#71;" d="M128 384c0 47 38 85 85 85 47 0 86-38 86-85l0-43c0-47-39-85-86-85-47 0-85 38-85 85z m128-341l-192 0c-12 0-21 9-21 21l0 21c0 67 38 125 95 153 21-15 47-25 75-25 71 0 128 58 128 128l0 43c0 71-57 128-128 128-70 0-128-57-128-128l0-43c0-26 8-51 22-71-64-37-107-106-107-185l0-21c0-35 29-64 64-64l192 0c12 0 21 10 21 21 0 12-9 22-21 22z m235 106l-86 0 0 86c0 11-9 21-21 21-12 0-21-10-21-21l0-86-86 0c-11 0-21-9-21-21 0-12 10-21 21-21l86 0 0-86c0-11 9-21 21-21 12 0 21 10 21 21l0 86 86 0c11 0 21 9 21 21 0 12-10 21-21 21z"/>
<glyph glyph-name="find-zapros-v-kbm" unicode="&#72;" d="M372 176c29 37 44 81 44 128 0 56-21 108-61 147-39 39-91 61-146 61-56 0-108-22-147-61-40-39-61-91-61-147 0-55 21-107 61-147 39-39 91-61 147-61 46 0 90 16 126 43l139-139 37 37z m-53 18c-30-29-69-46-110-46-42 0-81 17-111 46-29 29-46 68-46 110 0 42 17 81 46 110 30 30 69 46 111 46 41 0 80-16 110-46 29-29 45-68 45-110 0-42-16-81-45-110z m-112 84c-48 0-78-30-78-78l156 0c0 48-30 78-78 78z m52 78c0-29-23-52-52-52-29 0-52 23-52 52 0 29 23 52 52 52 29 0 52-23 52-52z"/>
<glyph glyph-name="warning" unicode="&#73;" d="M498 69c16 28 16 62 0 90l-164 284c-16 28-45 45-78 45-33 0-62-17-78-45l-164-284c-16-28-16-62 0-91 17-27 46-44 79-44l326 0c33 0 62 17 79 45z m-36 21c-9-16-25-26-43-26l-327 0c-18 0-34 10-42 25-10 16-10 34 0 50l163 283c9 16 25 25 43 25 18 0 34-10 43-25l163-284c10-15 9-33 0-48z m0 0z"/>
<glyph glyph-name="21-filter" unicode="&#74;" d="M209 16c-10 0-19 8-19 19l0 181-174 192c-15 16-18 37-9 57 8 19 27 31 48 31l402 0c21 0 41-12 49-31 8-20 5-41-9-57l-175-192 0-106c0-6-3-11-7-14l-94-76c-3-2-8-4-12-4z m-154 443c-6 0-12-4-14-10-3-5-1-11 2-15l180-198c3-4 5-8 5-13l0-149 56 45 0 104c0 5 2 9 5 13l180 198c3 4 4 10 2 15-2 6-8 10-14 10z m0 0z"/>
<glyph glyph-name="22-menu" unicode="&#75;" d="M40 415l432 0c20 0 36-9 36-20 0-11-16-19-36-19l-432 0c-20 0-36 8-36 19 0 11 16 20 36 20z m0-139l432 0c20 0 36-9 36-20 0-11-16-20-36-20l-432 0c-20 0-36 9-36 20 0 11 16 20 36 20z m0-140l432 0c20 0 36-8 36-19 0-11-16-20-36-20l-432 0c-20 0-36 9-36 20 0 11 16 19 36 19z"/>
<glyph glyph-name="22-print" unicode="&#76;" d="M437 383l-14 0 0 54c0 41-34 75-75 75l-184 0c-41 0-75-34-75-75l0-54-14 0c-41 0-75-33-75-75l0-120c0-41 34-75 75-75l14 0 0-68c0-25 20-45 45-45l244 0c25 0 45 20 45 45l0 68 14 0c41 0 75 34 75 75l0 120c0 42-34 75-75 75z m-318 54c0 25 20 45 45 45l184 0c25 0 45-20 45-45l0-54-274 0z m274-392c0-8-7-15-15-15l-244 0c-8 0-15 7-15 15l0 148 274 0z m89 143c0-25-20-45-45-45l-14 0 0 50 9 0c8 0 15 7 15 15 0 8-7 15-15 15l-352 0c-8 0-15-7-15-15 0-8 7-15 15-15l9 0 0-50-14 0c-25 0-45 20-45 45l0 120c0 25 20 45 45 45l362 0c25 0 45-20 45-45z m-186-29l-80 0c-8 0-15-7-15-15 0-8 7-15 15-15l80 0c8 0 15 7 15 15 0 8-7 15-15 15z m0-64l-80 0c-8 0-15-7-15-15 0-8 7-15 15-15l80 0c8 0 15 7 15 15 0 8-7 15-15 15z m-168 224l-48 0c-8 0-15-7-15-15 0-8 7-15 15-15l48 0c8 0 15 7 15 15 0 8-7 15-15 15z"/>
<glyph glyph-name="23-calendar" unicode="&#77;" d="M77 0l358 0c37 0 68 30 68 68l0 338c0 38-31 68-68 68l-27 0 0 19c0 10-9 19-19 19-11 0-19-9-19-19l0-19-228 0 0 19c0 10-8 19-19 19-10 0-19-9-19-19l0-19-27 0c-37 0-68-30-68-68l0-338c0-38 31-68 68-68z m-30 406c0 17 14 30 30 30l27 0 0-19c0-10 9-19 19-19 11 0 19 9 19 19l0 19 228 0 0-19c0-10 8-19 19-19 10 0 19 9 19 19l0 19 27 0c16 0 30-13 30-30l0-338c0-17-14-30-30-30l-358 0c-16 0-30 13-30 30z m0 0z m124-88c0-14-11-24-24-24-13 0-24 10-24 24 0 13 11 23 24 23 13 0 24-10 24-23z m0 0z m104 0c0-14-11-24-24-24-13 0-23 10-23 24 0 13 10 23 23 23 13 0 24-10 24-23z m0 0z m104 0c0-14-10-24-23-24-14 0-24 10-24 24 0 13 10 23 24 23 13 0 23-10 23-23z m0 0z m-208-95c0-13-11-24-24-24-13 0-24 11-24 24 0 13 11 24 24 24 13 0 24-11 24-24z m0 0z m104 0c0-13-11-24-24-24-13 0-23 11-23 24 0 13 10 24 23 24 13 0 24-11 24-24z m0 0z m104 0c0-13-10-24-23-24-14 0-24 11-24 24 0 13 10 24 24 24 13 0 23-11 23-24z m0 0z m-208-95c0-13-11-24-24-24-13 0-24 11-24 24 0 13 11 23 24 23 13 0 24-10 24-23z m0 0z m104 0c0-13-11-24-24-24-13 0-23 11-23 24 0 13 10 23 23 23 13 0 24-10 24-23z m0 0z m104 0c0-13-10-24-23-24-14 0-24 11-24 24 0 13 10 23 24 23 13 0 23-10 23-23z m0 0z"/>
<glyph glyph-name="30-oplata-4" unicode="&#78;" d="M150 313l76 0c6 0 12 5 12 12 0 6-6 11-12 11l-76 0c-7 0-12-5-12-11 0-7 5-12 12-12z m0 0z m147-53l-147 0c-7 0-12-6-12-12 0-7 5-12 12-12l147 0c6 0 12 5 12 12 0 6-6 12-12 12z m0 0z m0-78l-147 0c-7 0-12-5-12-11 0-7 5-12 12-12l147 0c6 0 12 5 12 12 0 6-6 11-12 11z m0 0z m169-88l0 373c1 24-17 44-41 45-1 0-2 0-3 0l-255 0c-26 0-50-19-50-45l0-20-21 0c-27-1-49-22-50-49l0-374c0-8 5-14 11-17 7-3 15-2 21 4l36 32 43-38c3-3 7-5 12-5 4 0 8 2 12 5l42 38 43-38c7-6 17-6 24 0l43 38 36-32c4-6 11-7 17-4 6 3 10 10 9 17l0 84 7 5 37-33c3-3 7-4 12-4 2 0 4 0 6 1 6 3 10 10 9 17z m-94-57l-28 27c-7 6-17 7-23 1l-44-39-42 39c-7 5-17 5-24 0l-42-39-43 39c-8 6-19 6-26-1l-31-27 0 361c1 14 13 25 27 25l255 0c13 0 21-12 21-25z m71 430l0-360-30 27c-5 5-6 6-18 4l0 260c0 26-18 49-44 49l-211 0 0 20c0 13 14 21 27 21l255 0c11 1 20-7 21-18 0-1 0-2 0-3z m0 0z"/>
<glyph glyph-name="30-oplata-5" unicode="&#79;" d="M496 43c-9 0-16 7-16 16l0 394c0 15-12 27-27 27l-394 0c-15 0-27-12-27-27l0-266c0-9-7-16-16-16-9 0-16 7-16 16l0 266c0 33 26 59 59 59l394 0c33 0 59-26 59-59l0-394c0-9-7-16-16-16z m0 0z m0 362l-480 0c-9 0-16 7-16 16 0 9 7 16 16 16l480 0c9 0 16-7 16-16 0-9-7-16-16-16z m0 0z m-320-346c-9 0-16 7-16 16l0 218c0 27 21 48 48 48 26 0 48-21 48-48l0-128c0-9-7-16-16-16-9 0-16 7-16 16l0 128c0 9-7 16-16 16-9 0-16-7-16-16l0-218c0-9-7-16-16-16z m0 0z m64 37c-9 0-16 7-16 16l0 53c0 27 21 48 48 48 26 0 48-21 48-48l0-21c0-9-7-16-16-16-9 0-16 7-16 16l0 21c0 9-7 16-16 16-9 0-16-7-16-16l0-53c0-9-7-16-16-16z m0 0z m64-21c-9 0-16 7-16 16l0 53c0 27 22 48 48 48 26 0 48-21 48-48l0-43c0-9-7-16-16-16-9 0-16 7-16 16l0 43c0 9-7 16-16 16-9 0-16-7-16-16l0-53c0-9-7-16-16-16z m0 0z m128-75c-9 0-16 7-16 16l0 85c0 9-7 16-16 16-9 0-16-7-16-16l0-31c0-9-7-17-16-17-9 0-16 8-16 17l0 31c0 27 22 48 48 48 26 0 48-21 48-48l0-85c0-9-7-16-16-16z m0 0z m-318 0c-6 0-12 4-14 10-15 35-29 47-39 57-9 8-18 17-18 34 0 7 2 38 58 38 40 0 70-30 88-54 5-8 4-18-3-23-7-5-17-3-23 4-11 15-35 41-62 41-22 0-26-7-26-7 0-2 0-2 8-10 11-10 28-26 46-68 4-8 0-17-8-21-2 0-5-1-7-1z m0 0z"/>
<glyph glyph-name="30-oplata-6" unicode="&#80;" d="M496 334c-9 0-16 7-16 16l0 103c0 15-12 27-27 27l-103 0c-9 0-16 7-16 16 0 9 7 16 16 16l103 0c33 0 59-26 59-59l0-103c0-9-7-16-16-16z m0 0z m-480 0c-9 0-16 7-16 16l0 103c0 33 26 59 59 59l103 0c9 0 16-7 16-16 0-9-7-16-16-16l-103 0c-15 0-27-12-27-27l0-103c0-9-7-16-16-16z m0 0z m437-334l-103 0c-9 0-16 7-16 16 0 9 7 16 16 16l103 0c15 0 27 12 27 27l0 103c0 9 7 16 16 16 9 0 16-7 16-16l0-103c0-33-26-59-59-59z m0 0z m-291 0l-103 0c-33 0-59 26-59 59l0 103c0 9 7 16 16 16 9 0 16-7 16-16l0-103c0-15 12-27 27-27l103 0c9 0 16-7 16-16 0-9-7-16-16-16z m0 0z m41 277l-123 0c-9 0-16 8-16 16l0 139c0 9 7 16 16 16l123 0c9 0 16-7 16-16l0-139c0-8-7-16-16-16z m-107 32l91 0 0 107-91 0z m0 0z m357-245l-138 0c-9 0-16 7-16 16l0 75c0 8 7 16 16 16 9 0 16-8 16-16l0-59 106 0 0 85-80 0c-8 0-16 7-16 16 0 9 8 16 16 16l96 0c9 0 16-7 16-16l0-117c0-9-7-16-16-16z m0 0z m-21 256l-96 0c-9 0-16 7-16 16l0 96c0 9 7 16 16 16l96 0c9 0 16-7 16-16l0-96c0-9-7-16-16-16z m-80 32l64 0 0 64-64 0z m0 0z m-91-139l-181 0c-9 0-16 7-16 16 0 9 7 16 16 16l165 0 0 166c0 8 8 16 16 16 9 0 16-8 16-16l0-182c0-9-7-16-16-16z m0 0z m54 0c-9 0-16 7-16 16l0 32c0 9 7 16 16 16l117 0c9 0 16-7 16-16 0-8-7-16-16-16l-101 0 0-16c0-9-7-16-16-16z m0 0z m-118-149l-117 0c-9 0-16 7-16 16l0 85c0 9 7 16 16 16l117 0c9 0 16-7 16-16l0-85c0-9-7-16-16-16z m-101 32l85 0 0 53-85 0z m0 0z m155 10c8 0 16 7 16 16l0 53c0 9-8 17-16 17-9 0-16-8-16-17l0-53c0-9 7-16 16-16z m0 0z"/>
<glyph glyph-name="30-print" unicode="&#81;" d="M478 167c0-3-3-6-6-6l-54 0 0 48c0 9-8 17-17 17l-290 0c-9 0-17-8-17-17l0-48-54 0c-3 0-6 3-6 6l0 171c0 3 3 6 6 6 13 0 419 0 432 0 3 0 6-3 6-6z m-94-115l-256 0c0 4 0 135 0 140l256 0c0-5 0-136 0-140z m-256 408l256 0 0-82-256 0z m344-82l-54 0 0 99c0 9-8 17-17 17l-290 0c-9 0-17-8-17-17l0-99-54 0c-22 0-40-17-40-40l0-171c0-23 18-40 40-40l54 0 0-92c0-10 8-17 17-17l290 0c9 0 17 7 17 17l0 92 54 0c22 0 40 17 40 40l0 171c0 23-18 40-40 40z m-71-66l-43 0c-10 0-18-8-18-17 0-9 8-17 18-17l43 0c9 0 17 8 17 17 0 9-8 17-17 17z m-71-200l-148 0c-10 0-17-7-17-17 0-9 7-17 17-17l148 0c10 0 17 8 17 17 0 10-7 17-17 17z m0 54l-148 0c-10 0-17-8-17-17 0-10 7-17 17-17l148 0c10 0 17 7 17 17 0 9-7 17-17 17z"/>
<glyph glyph-name="bin" unicode="&#82;" d="M217 314c-11 0-19-8-19-20l0-155c0-11 8-20 19-20 11 0 20 9 20 20l0 155c0 12-9 20-20 20z m0 0z m78 0c-11 0-20-8-20-20l0-155c0-11 9-20 20-20 11 0 19 9 19 20l0 155c0 12-8 20-19 20z m0 0z m19 196l-116 0c-22 0-40-18-40-40l0-38-117 0c-11 0-19-9-19-20 0-11 8-19 19-19l40 0 0-333c0-32 25-58 58-58l234 0c33 0 58 26 58 58l0 333 40 0c10 0 19 8 19 19 0 11-9 20-19 20l-117 0 0 38c0 22-18 40-40 40z m78-450c0-10-8-19-19-19l-234 0c-11 0-20 9-20 19l0 333 273 0z m-194 410l116 0 0-38-116 0z m0-38l0 38z"/>
<glyph glyph-name="cancel" unicode="&#83;" d="M340 254c-1 1-1 3 0 5l162 161c14 13 14 36 0 50l-32 32c-7 6-16 10-25 10-10 0-18-4-26-10l-161-161c0-1-1-1-2-1-1 0-2 0-2 1l-161 161c-7 6-16 10-25 10-10 0-19-4-25-10l-32-32c-14-14-14-37 0-50l161-161c1-2 1-4 0-5l-161-162c-14-13-14-36 0-50l32-32c6-6 15-10 25-10 9 0 18 4 25 10l161 161c0 1 1 2 2 2 1 0 2-1 2-2l161-161c8-6 16-10 26-10 9 0 18 4 25 10l32 32c14 14 14 37 0 50z"/>
<glyph glyph-name="edit" unicode="&#84;" d="M54 0l329 0c31 0 56 25 56 54l0 183c0 11-8 19-19 19-10 0-18-8-18-19l0-183c0-9-8-17-19-17l-329 0c-9 0-17 8-17 17l0 366c0 11 8 19 17 19l221 0c10 0 18 8 18 19 0 9-8 17-18 17l-221 0c-29 0-54-24-54-55l0-366c0-29 25-54 54-54z m412 418l-238-237-71-24 24 71 237 238c14 13 34 12 48 0 6-6 9-16 9-24 0-9-3-17-9-24z m-24 94c-18 0-37-7-49-21l-242-240c-1-2-3-5-4-7l-36-110c-3-10 2-20 11-23 2-1 4-1 5-1 3 0 5 0 7 1l110 36c2 1 5 3 7 5l240 241c28 26 28 71 0 98-13 14-30 21-49 21z"/>
<glyph glyph-name="excel" unicode="&#85;" d="M94 465l233 0 0-93 93 0 0-23 47 0 0 56-107 107-266 0c-25 0-46-21-46-47l0-116 46 0z m0 0z m326-418l-326 0 0 23-46 0 0-23c0-26 21-47 46-47l326 0c26 0 47 21 47 47l0 23-47 0z m0 0z m-209 256l0-186 116 0 0 46-69 0 0 140z m0 0z m198-47l81 0 0 47-81 0c-32 0-58-27-58-58 0-33 26-59 58-59l23 0c6 0 12-5 12-12 0-6-6-11-12-11l-81 0 0-46 81 0c32 0 58 26 58 57 0 33-26 59-58 59l-23 0c-7 0-12 5-12 12 0 6 5 11 12 11z m0 0z m-333-139l29 47 29-47 53 0-55 93 55 93-53 0-29-48-29 48-54 0 56-93-56-93z m0 0z"/>
<glyph glyph-name="02-left" unicode="&#86;" d="M373 0c-6 0-13 3-17 7l-232 233c-9 9-9 23 0 32l232 233c9 9 24 9 33 0 9-8 9-24 0-33l-216-216 216-216c9-9 9-24 0-33-5-4-10-7-16-7z m0 0z"/>
<glyph glyph-name="02-right" unicode="&#87;" d="M140 0c5 0 11 3 16 7l233 232c8 10 8 24 0 34l-233 232c-9 9-24 9-33 0-9-9-9-24 0-33l216-216-216-216c-9-9-9-24 0-33 5-4 11-7 17-7z m0 0z"/>
<glyph glyph-name="03-faq" unicode="&#88;" d="M257 512c140 0 255-115 255-257 0-140-115-255-255-255-142 0-257 115-257 255 0 142 115 257 257 257z m-18-334c0 1 0 3 0 5 0 1 0 4 0 5 0 12 2 24 6 33 3 9 8 18 14 26 5 7 11 15 17 22 7 7 12 14 18 20 5 8 11 16 14 23 3 8 5 17 5 26 0 15-3 26-12 34-7 9-20 13-39 13-11 0-22-2-33-5-11-4-19-9-28-13l-12 27c12 7 23 12 36 16 12 5 27 7 46 7 13 0 25-2 35-7 9-3 18-8 25-15 6-6 12-14 15-23 3-8 4-18 4-28 0-13-2-25-5-35-4-10-10-19-15-27-7-8-13-16-20-23-8-8-14-14-20-23-6-8-11-17-15-25-4-10-6-20-6-33z m-9-58c0 8 3 14 8 19 4 4 10 6 17 6 9 0 16-2 20-6 4-5 8-11 8-19 0-9-4-14-8-20-4-4-11-6-20-6-7 0-13 2-17 6-5 6-8 11-8 20z"/>
<glyph glyph-name="03-search" unicode="&#89;" d="M206 100c45 0 90 16 126 43l136-135c11-10 27-10 36 1 10 9 10 24 0 35l-135 136c69 89 53 219-37 289-89 70-219 54-289-36-70-90-54-220 36-290 37-27 81-43 127-43z m-110 316c61 60 159 60 219 0 60-61 60-159 0-219-60-60-158-60-219 0-60 60-61 157 0 218 0 0 0 1 0 1z m0 0z"/>
<glyph glyph-name="04-info-blue" unicode="&#90;" d="M384 512l-257 0c-70 0-127-57-127-127l0-257c0-71 57-128 127-128l257 0c71 0 128 57 128 128l0 257c0 70-57 127-128 127z m98-384c0-54-44-98-98-98l-257 0c-53 0-97 44-97 98l0 257c0 53 44 97 97 97l257 0c54 0 98-44 98-97z m0 0z m-226 210c26 0 47 20 47 47 0 26-21 46-47 46-27 0-47-20-47-46 0-27 20-47 47-47z m0 64c9 0 17-8 17-17 0-10-8-17-17-17-9 0-17 7-17 17 0 9 8 17 17 17z m0 0z m47-252l0 115c0 25-21 46-47 46l-21 0c-15 0-29-9-35-22-7-14-5-30 5-42l4-4 0-93-3-3c-11-11-14-28-9-43 7-14 21-23 37-23l44 0c16 0 30 9 36 23 6 15 3 32-9 43z m-17-34c-1-3-4-5-8-5l-44 0c-4 0-7 2-8 5-2 3-1 7 2 10l6 7c3 3 5 6 5 11l0 104c0 3-1 7-4 10l-6 8c-3 3-3 7-2 10 2 3 4 6 8 6l21 0c9 0 17-8 17-17l0-121c0-5 2-8 5-11l6-7c3-3 4-7 2-10z m0 0z"/>
<glyph glyph-name="04-info-red" unicode="&#48;" d="M384 512l-257 0c-70 0-127-57-127-127l0-257c0-71 57-128 127-128l257 0c71 0 128 57 128 128l0 257c0 70-57 127-128 127z m98-384c0-54-44-98-98-98l-257 0c-53 0-97 44-97 98l0 257c0 53 44 97 97 97l257 0c54 0 98-44 98-97z m0 0z m-226 210c26 0 47 20 47 47 0 26-21 46-47 46-27 0-47-20-47-46 0-27 20-47 47-47z m0 64c9 0 17-8 17-17 0-10-8-17-17-17-9 0-17 7-17 17 0 9 8 17 17 17z m0 0z m47-252l0 115c0 25-21 46-47 46l-21 0c-15 0-29-9-35-22-7-14-5-30 5-42l4-4 0-93-3-3c-11-11-14-28-9-43 7-14 21-23 37-23l44 0c16 0 30 9 36 23 6 15 3 32-9 43z m-17-34c-1-3-4-5-8-5l-44 0c-4 0-7 2-8 5-2 3-1 7 2 10l6 7c3 3 5 6 5 11l0 104c0 3-1 7-4 10l-6 8c-3 3-3 7-2 10 2 3 4 6 8 6l21 0c9 0 17-8 17-17l0-121c0-5 2-8 5-11l6-7c3-3 4-7 2-10z m0 0z"/>
<glyph glyph-name="06-menu-1" unicode="&#49;" d="M427 235c-9 0-16-6-16-14l0-156-83 0 0 156c0 8-7 14-15 14l-113 0c-9 0-16-6-16-14l0-156-83 0 0 156c0 8-7 14-15 14-9 0-15-6-15-14l0-171c0-8 6-15 15-15l341 0c8 0 14 7 14 15l0 171c0 8-6 14-14 14z m-213-30l84 0 0-140-84 0z m0-140l0 140z m294 166l-242 242c-2 2-6 4-10 4-4 0-8-2-10-4l-242-242c-3-2-4-6-4-10 0-4 1-8 4-11 6-6 16-6 22 0l230 230 231-230c3-4 7-5 11-5 4 0 7 1 10 5 7 6 7 15 0 21z"/>
<glyph glyph-name="06-menu-2" unicode="&#50;" d="M452 429l-66 0 0 66c0 10-9 17-17 17l-309 0c-11 0-17-7-17-17l0-420c0-11 6-18 17-18l66 0 0-40c0-8 9-17 17-17l309 0c11 0 17 9 17 17l0 394c0 9-6 18-17 18z m-321-101c-2-2-5-7-5-12l0-224-49 0 0 385 274 0 0-48-112 0c-6 0-11-4-13-6z m90 42l0-37-36 0z m214-335l-274 0 0 264 78 0c8 0 17 8 17 17l0 78 179 0z m0 0z"/>
<glyph glyph-name="06-menu-3" unicode="&#51;" d="M468 63l-422 0c-9 0-15 8-15 17l0 142c12-9 29-15 47-15l118 0 0-15c0-7 3-11 8-14l46-23c1-2 4-3 6-3 3 0 5 1 8 3l44 23c6 3 9 7 9 14l0 15 117 0c18 0 35 6 49 15l0-142c0-9-8-17-15-17z m-181 138l-31-17-29 17 0 43 60 0z m-256 162c0 8 4 14 12 16 0 0 1 0 3 0l422 0c0 0 1 0 3 0 6-2 12-8 12-16l0-78c0-27-22-49-49-49l-117 0 0 23c0 9-7 15-15 15l-90 0c-10 0-16-6-16-15l0-23-118 0c-26 0-47 22-47 49z m165 82c0 1 2 3 5 3l110 0c3 0 5-2 6-3l5-36-130 0z m272-36l-115 0-7 39c-3 18-16 30-35 30l-110 0c-17 0-32-12-35-30l-5-39-115 0c-26 0-46-20-46-46l0-283c0-26 20-46 46-46l422 0c24 0 44 20 44 46l0 283c0 26-20 46-44 46z"/>
<glyph glyph-name="06-menu-4" unicode="&#52;" d="M298 483c-7 17-22 29-43 29-19 0-36-12-41-29l-138 0c-9 0-16-7-16-16l0-453c0-9 7-14 16-14l360 0c9 0 16 5 16 14l0 453c0 9-7 16-16 16z m-117-31l45 0c8 0 15 7 15 15 0 9 6 16 14 16 9 0 16-7 16-16 0-8 7-15 15-15l45 0 0-30-150 0z m240-423l-331 0 0 423 60 0 0-45c0-9 7-16 15-16l182 0c6 0 13 7 13 16l0 45 61 0z m0 0z m-164 300c-67 0-121-53-121-120 0-66 54-119 121-119 65 0 119 53 119 119 0 67-54 120-119 120z m0-210c-50 0-92 41-92 90 0 50 42 91 92 91 48 0 90-41 90-91 0-49-42-90-90-90z m0 0z m34 131l-50-50-19 21c-7 5-15 5-22 0-5-7-5-16 0-23l31-29c2-4 7-5 10-5 4 0 7 1 11 5l60 60c5 5 5 16 0 21-5 5-15 5-21 0z m0 0z"/>
<glyph glyph-name="06-menu-5" unicode="&#53;" d="M212 253l89 0c25 0 44-21 44-46l0-134-178 0 0 134c0 25 20 46 45 46z m-167-180c-9 0-15 7-15 16l0 80c0 25 20 45 45 45l50 0c4 0 8-1 12-2 0-1-1-4-1-5l0-134z m437 16c0-9-6-16-14-16l-92 0 0 134c0 1 0 4 0 5 3 1 7 2 11 2l50 0c25 0 45-20 45-45z m-45 155l-50 0c-7 0-13-2-19-3-13 24-39 41-67 41l-89 0c-29 0-54-17-67-41-6 1-13 3-20 3l-50 0c-41 0-75-33-75-75l0-80c0-25 20-45 45-45l423 0c24 0 44 20 44 45l0 80c0 42-33 75-75 75z m-301 74c0-19-16-36-36-36-21 0-36 17-36 36 0 21 15 38 36 38 20 0 36-17 36-38z m-36-65c37 0 67 29 67 65 0 38-30 67-67 67-36 0-67-29-67-67 0-36 31-65 67-65z m157 186c31 0 59-27 59-59 0-33-28-60-59-60-33 0-59 27-59 60 0 32 26 59 59 59z m0-149c48 0 88 40 88 90 0 49-40 88-88 88-50 0-90-39-90-88 0-50 40-90 90-90z m155 66c21 0 36-17 36-38 0-19-15-36-36-36-20 0-36 17-36 36 0 21 16 38 36 38z m0-103c36 0 67 29 67 65 0 38-31 67-67 67-36 0-67-29-67-67 0-36 31-65 67-65z"/>
<glyph glyph-name="06-menu-8" unicode="&#54;" d="M497 331l-17 0 0 104c0 10-7 17-15 17-8 0-15-7-15-17l0-104-29 0 0 75c0 8-7 15-15 15-10 0-16-7-16-15l0-75-30 0 0 45c0 8-7 15-15 15-8 0-14-7-14-15l0-45-15 0c-10 0-16-7-16-15 0-8 6-15 16-15l181 0c8 0 15 7 15 15 0 8-7 15-15 15z m0 0z m-32-60l-195 0 0 195c0 8-7 15-15 15-92 0-174-55-208-140l-15 6c-8 2-16-3-19-10-9-27-13-53-13-82 0-90 47-170 120-216 6-4 16-1 21 5l8 14c32-18 69-27 106-27 125 0 225 101 225 224 0 10-7 16-15 16z m-224 179l0-173-166 55c28 67 92 113 166 118z m-117-376c-59 42-94 109-94 181 0 20 2 39 8 58l194-66z m131-14c-32 0-63 9-90 23l98 158 187 0c-8-101-93-181-195-181z m0 0z"/>
<glyph glyph-name="06-menu-9" unicode="&#55;" d="M512 257c0 141-115 255-257 255-141 0-255-114-255-255 0-140 114-257 255-257 143 0 257 115 257 257z m-257 225c125 0 227-102 227-225 0-46-13-90-39-127-101 109-273 109-374 0-26 37-39 81-39 127 0 123 102 225 225 225z m-168-376c90 100 247 100 337 0-90-101-246-101-337 0z m0 0z m168 136c51 0 91 39 91 89l0 30c0 49-40 90-91 90-49 0-89-41-89-90l0-30c0-50 40-89 89-89z m-59 119c0 33 27 60 59 60 34 0 60-27 60-60l0-30c0-32-26-59-60-59-32 0-59 27-59 59z m0 0z"/>
<glyph glyph-name="06-menu-10" unicode="&#56;" d="M345 225c-11 8-35 26-54 5-4-5-9-7-12-9-18 9-51 40-58 61 30 28 16 37-14 94-5 9-14 14-24 14-12 0-16-7-35-24-21-23-35-30-26-68 24-105 181-213 226-166 35 37 42 39 42 56-5 16-17 21-45 37z m-19-72c-2-3-18-5-44 7-47 18-96 70-118 110-7 12-21 49-11 56 2 3 23 26 30 31 14-28 21-40 24-47-5-7-19-12-19-28 7-31 49-71 73-85 26-14 33-4 42 5 9 9 7 7 9 7l45-26c-5-5-28-26-31-30z m0 0z m-70 359c-141 0-256-115-256-256 0-141 115-256 256-256 141 0 256 115 256 256 0 141-115 256-256 256z m0-481c-124 0-225 101-225 225 0 124 101 225 225 225 124 0 225-101 225-225 0-124-101-225-225-225z m0 0z"/>
<glyph glyph-name="06-menu-11" unicode="&#57;" d="M351 257l128 126 0-254z m-169-21l21-23c14-14 32-21 53-21 19 0 37 7 51 21l23 23 128-127-404 0z m104-2c-7-7-18-12-30-12-12 0-23 5-33 12-2 5-157 158-169 169l404 0c-9-9-165-162-172-169z m-253 149l128-126-128-128z m476 7c0 23-21 44-46 44l-416 0c-23 0-44-21-44-44l0-268c0-23 21-44 44-44l416 0c25 0 46 21 46 44z"/>
<glyph glyph-name="07-avatar" unicode="&#33;" d="M256 512c141 0 256-115 256-256 0-141-115-256-256-256-141 0-256 115-256 256 0 141 115 256 256 256z m189-429c-7 7-15 12-24 15l-78 26c-18 7-27 38-29 49 14 12 24 29 26 48 0 3 0 6 2 9 3 1 5 3 6 5 5 12 8 25 10 39 0 0-1 1-1 2-1 5-4 9-8 13l0 46c0 28-9 40-18 47-2 13-16 41-70 41-48-2-86-40-88-88l0-46c-4-4-7-8-9-13 0-1 0-2 0-2 1-14 5-27 10-39 0-2 2-4 5-5 1 0 3-3 3-9 2-19 11-36 26-48-2-11-11-42-29-49l-78-26c-12-4-21-11-29-20 42-43 97-71 160-77l48 0c65 6 123 37 165 82z"/>
<glyph glyph-name="07-bottom" unicode="&#34;" d="M512 360l-256-256-256 256 48 48 208-208 208 208z"/>
<glyph glyph-name="07-profile" unicode="&#35;" d="M56 37l401 0c-7 100-75 150-201 150-126 0-193-50-200-150z m420-37l-440 0c-10 0-18 9-18 19 0 132 84 205 238 205 154 0 238-73 238-205 0-10-7-19-18-19z m-220 475c-50 0-86-37-86-90 0-53 39-97 86-97 48 0 87 44 87 97 0 51-37 90-87 90z m0-224c-68 0-124 60-124 134 0 73 54 127 124 127 71 0 124-54 124-127 0-74-56-134-124-134z"/>
<glyph glyph-name="07-quit" unicode="&#36;" d="M381 381c-9 9-24 9-33 0-9-9-9-24 0-33l69-69-285 0c-13 0-23-10-23-23 0-13 10-24 23-24l285 0-69-68c-9-9-9-24 0-33 5-4 10-7 17-7 6 0 12 3 16 7l109 108c9 10 9 24 0 34z m0 0z m-140-381c12 0 23 11 23 23 0 13-11 23-23 23l-179 0 0 420 179 0c12 0 23 10 23 23 0 12-11 23-23 23l-202 0c-13 0-23-11-23-23l0-466c0-12 10-23 23-23z m0 0z"/>
<glyph glyph-name="08-date" unicode="&#37;" d="M77 0l358 0c37 0 67 31 67 68l0 338c0 38-30 68-67 68l-28 0 0 19c0 11-8 19-19 19-11 0-19-8-19-19l0-19-227 0 0 19c0 11-9 19-19 19-10 0-18-8-18-19l0-19-28 0c-37 0-67-30-67-68l0-338c0-37 30-68 67-68z m-29 406c0 17 13 30 29 30l28 0 0-19c0-10 8-18 18-18 10 0 19 8 19 18l0 19 227 0 0-19c0-10 8-18 19-18 11 0 19 8 19 18l0 19 28 0c16 0 29-13 29-30l0-338c0-16-13-30-29-30l-358 0c-16 0-29 14-29 30z m0 0z m122-88c0-13-10-24-24-24-13 0-23 11-23 24 0 13 10 24 23 24 14 0 24-11 24-24z m0 0z m105 0c0-13-11-24-24-24-13 0-24 11-24 24 0 13 11 24 24 24 13 0 24-11 24-24z m0 0z m104 0c0-13-11-24-24-24-13 0-24 11-24 24 0 13 11 24 24 24 13 0 24-11 24-24z m0 0z m-209-95c0-13-10-24-24-24-13 0-23 11-23 24 0 13 10 23 23 23 14 0 24-10 24-23z m0 0z m105 0c0-13-11-24-24-24-13 0-24 11-24 24 0 13 11 23 24 23 13 0 24-10 24-23z m0 0z m104 0c0-13-11-24-24-24-13 0-24 11-24 24 0 13 11 23 24 23 13 0 24-10 24-23z m0 0z m-209-94c0-14-10-24-24-24-13 0-23 10-23 24 0 13 10 23 23 23 14 0 24-10 24-23z m0 0z m105 0c0-14-11-24-24-24-13 0-24 10-24 24 0 13 11 23 24 23 13 0 24-10 24-23z m0 0z m104 0c0-14-11-24-24-24-13 0-24 10-24 24 0 13 11 23 24 23 13 0 24-10 24-23z m0 0z"/>
<glyph glyph-name="09-left" unicode="&#38;" d="M154 421c11 10 30 10 43 0 11-14 11-32 0-43l-91-91 375 0c16 0 30-14 30-32 0-16-14-30-30-30l-375 0 91-91c11-11 11-32 0-43-8-5-13-8-21-8-8 0-16 3-22 8l-144 142c-11 14-11 32 0 43z m0 0z"/>
<glyph glyph-name="09-right" unicode="&#39;" d="M359 420c-11 11-32 11-43 0-12-12-12-32 0-44l89-89-373 0c-16 0-30-14-30-30 0-18 14-32 30-32l373 0-89-89c-12-12-12-32 0-44 6-7 13-9 20-9 9 0 16 2 23 9l142 142c11 12 11 32 0 44z m0 0z"/>
<glyph glyph-name="06-menu-6" unicode="&#40;" d="M497 66l-14 0 0 297c0 9-7 17-15 17l-83 0c-8 0-14-8-14-17l0-297-42 0 0 397c0 9-7 17-16 17l-82 0c-9 0-16-8-16-17l0-397-42 0 0 216c0 10-7 18-15 18l-83 0c-8 0-16-8-16-18l0-216-29 0 0 397c0 9-6 17-15 17-8 0-15-8-15-17l0-414c0-9 7-17 15-17l482 0c8 0 15 8 15 17 0 9-7 17-15 17z m-407 199l53 0 0-199-53 0z m155 181l53 0 0-380-53 0z m156-100l52 0 0-280-52 0z m0-280l0 280z"/>
<glyph glyph-name="06-menu-7" unicode="&#41;" d="M498 390c-2 0-22 0-50 0l0 59c0 10-8 16-16 16-59-4-132-30-176-77-44 47-117 73-176 77-8 0-16-6-16-16l0-60c-17 0-31 0-48 1-9 0-16-7-16-15l0-273c0-9 6-16 14-16 60-4 160-4 236-37 7-3 13 1 12 0 76 33 176 33 236 37 8 0 14 7 14 16l0 273c0 8-7 15-14 15z m-80 43l0-259c-43-10-99-30-146-74 0 13 0 252 0 259 33 41 94 66 146 74z m-324 0c52-8 113-33 146-74l0-259c-47 44-103 64-146 74z m-64-319l0 245c11 0 23 0 34 0l0-196c0-7 6-14 13-16 35-5 79-20 120-50-60 13-121 16-167 17z m452 0c-46-1-107-4-167-17 41 30 85 45 120 50 7 2 13 9 13 16l0 197c14 0 25 0 34 0z m0 0z m-280 211c-12 8-32 18-53 21-9 2-16-4-17-13-2-7 4-16 11-17 17-3 33-10 41-16 8-5 16-4 22 3 4 7 3 17-4 22z m0 0z m-2-85c-10 6-31 17-51 22-9 1-16-5-17-13-2-9 4-16 11-17 16-3 34-13 41-17 8-5 18-3 22 4 4 7 1 17-6 21z m0 0z m128 60c8 6 24 13 41 16 7 1 13 10 11 17-1 9-8 15-17 13-21-3-41-13-53-21-7-5-8-15-4-22 6-7 14-8 22-3z m0 0z m35-38c-20-5-41-16-51-22-7-4-10-14-6-21 4-7 14-9 22-4 7 4 25 14 41 17 7 1 13 8 11 17-1 8-8 14-17 13z m0 0z"/>
</font>
</defs>
</svg>
